Autore Topic: Grande Notizia !!!  (Letto 2041 volte)

0 Utenti e 1 Visitatore stanno visualizzando questo topic.

Calavera

  • Administrator
  • Ufficiale
  • *****
  • Post: 6.186
    • Mostra profilo
Re: Grande Notizia !!!
« Risposta #20 il: 01 Ott 2011 14:12:11 »
Hai ragione nel dire che si poteva far tutto direttamente con ImgBurn!;DMa almeno ti ho descritto il procedimento esatto che ho fatto io! E alla fine funziona!
Comunque non capisco, che eseguibile hai usato per avviare il gioco? Io non credo che sia un problema di Dosbox perch quello che ti si avvia NON E' assolutamente il gioco in s! E' una specie di trailer promozionale della Colors srl!

Io ti rimando al mio post precedente e ti consiglio di seguire le indicazioni che ti ho descritto! E' vero, a ben vedere puoi fare direttamente tutto con ImgBurn, d'accordo, ma prova a lasciar perdere il discorso Mixed Mode!
Segui le indicazioni, e il risultato dovrebbe essere all'incirca come nel video che ti ho uppato qua sotto (per comodit i filmati d'introduzione li ho un p saltati):

http://www.mediafire.com/?ld7axlg5mxbc6u3

Come vedi (e senti) si pu disquisire sulla qualit audio ecc ecc... ma tutto sommato il gioco stato emulato: non muto ed perfettamente giocabile!





- Ask not what arena80 can do for you - ask what you can do for arena80 -

oppegnagno

  • Ufficiale
  • *****
  • Post: 1.732
    • Mostra profilo
Re: Grande Notizia !!!
« Risposta #21 il: 01 Ott 2011 18:54:31 »
Mi sa che ci siamo capiti male :D

Allora...nel gioco in-game la musica si sente perch in formato midi
e risiede nella cartella d'installazione.

Il problema che Neverworld ha anche delle tracce audio nel CD

Se il gioco non rileva le tracce audio
in automatico salta alcune parti

Se nel gioco ci sono dei filmati importanti
sicuramente questi verranno "Skippati" ;)

il file che uso per avviare il gioco NW.bat


« Ultima modifica: 01 Ott 2011 18:54:57 da oppegnagno »

Calavera

  • Administrator
  • Ufficiale
  • *****
  • Post: 6.186
    • Mostra profilo
Re: Grande Notizia !!!
« Risposta #22 il: 01 Ott 2011 19:25:54 »
Si oppe facciamo fatica a capirci: io ho chiaramente indicato che l'eseguibile per avviare il gioco nw01.exe, non nw.bat!
Visto che tu hai problemi anche solo ad avviare il gioco comincia ad usare quello e fallo partire! Un passo alla volta! Per le eventuali parti mancanti, se ci dovessero essere, ci penseremo! Il tuo problema che il gioco proprio non ti partiva!

Domanda esistenziale: il gioco adesso ti si avvia? L'audio si sente? Perch io ero rimasto a quella fase del problema!
Se quel punto superato allora cominciamo a giocarci e buon divertimento! Se nel testarlo salteranno poi fuori problemi allora la soluzione a portata di mano: masterizzazione su cd con Nero e lo avvieremo da lettore fisico!





- Ask not what arena80 can do for you - ask what you can do for arena80 -

oppegnagno

  • Ufficiale
  • *****
  • Post: 1.732
    • Mostra profilo
Re: Grande Notizia !!!
« Risposta #23 il: 01 Ott 2011 19:48:45 »
Nel libretto di istruzioni c'era scritto
digiatare il comando NW per questo ho usato NW.bat

Si con il file immagine "Mixed Mode" il gioco si sente e Funziona :hallo:

Calavera

  • Administrator
  • Ufficiale
  • *****
  • Post: 6.186
    • Mostra profilo
Re: Grande Notizia !!!
« Risposta #24 il: 01 Ott 2011 20:00:45 »
Con nw avevo regolarmente crash con messaggi che imputavano errori audio! Avevo immaginato che in un ambiente dos simulato e non nativo un file exe poteva essere pi consigliato di un file batch! Se per finalmente ti funziona comunque sono contento per te, buon divertimento! :ciaonew:

EDIT: a proposito, parlando di giochi di Ivan, mi sto dannando a cercare di far funzionare Rinascimento hostato da McNelly! Qualche idea?





- Ask not what arena80 can do for you - ask what you can do for arena80 -

oppegnagno

  • Ufficiale
  • *****
  • Post: 1.732
    • Mostra profilo
Re: Grande Notizia !!!
« Risposta #25 il: 01 Ott 2011 20:22:41 »
Citazione
quote:
Scritto in origine da Calavera
EDIT: a proposito, parlando di giochi di Ivan, mi sto dannando a cercare di far funzionare Rinascimento hostato da McNelly! Qualche idea?



Il gioco non si installa penso che il file immagine non sia stato fatto nel modo corretto :(

« Ultima modifica: 01 Ott 2011 22:59:23 da oppegnagno »

Calavera

  • Administrator
  • Ufficiale
  • *****
  • Post: 6.186
    • Mostra profilo
Re: Grande Notizia !!!
« Risposta #26 il: 02 Ott 2011 12:19:57 »
Questo lo so, ma all'interno del cd presente anche un'eseguibile che avvierebbe il gioco, si chiama rio1.exe!
Purtroppo accede al men del gioco ma si impianta!





- Ask not what arena80 can do for you - ask what you can do for arena80 -

oppegnagno

  • Ufficiale
  • *****
  • Post: 1.732
    • Mostra profilo
Re: Grande Notizia !!!
« Risposta #27 il: 02 Ott 2011 13:13:25 »
Citazione
quote:
Scritto in origine da Calavera

Questo lo so, ma all'interno del cd presente anche un'eseguibile che avvierebbe il gioco, si chiama rio1.exe!
Purtroppo accede al men del gioco ma si impianta!


Probabilmete perche non trova i file necessari ;)


Calavera

  • Administrator
  • Ufficiale
  • *****
  • Post: 6.186
    • Mostra profilo
Re: Grande Notizia !!!
« Risposta #28 il: 03 Ott 2011 11:47:13 »
Citazione
quote:
Scritto in origine da oppegnagno

Il gioco non si installa penso che il file immagine non sia stato fatto nel modo corretto :(
Anche da cd originale? :mmh:





- Ask not what arena80 can do for you - ask what you can do for arena80 -

oppegnagno

  • Ufficiale
  • *****
  • Post: 1.732
    • Mostra profilo
Re: Grande Notizia !!!
« Risposta #29 il: 03 Ott 2011 11:55:03 »
Citazione
quote:
Scritto in origine da Calavera

Citazione
quote:
Scritto in origine da oppegnagno

Il gioco non si installa penso che il file immagine non sia stato fatto nel modo corretto :(
Anche da cd originale? :mmh:


Hai il cd originale  ? :mmh:

Calavera

  • Administrator
  • Ufficiale
  • *****
  • Post: 6.186
    • Mostra profilo
Re: Grande Notizia !!!
« Risposta #30 il: 03 Ott 2011 12:58:18 »
Ovviamente io no, magari!;DMi pare che McNelly (l'uploader) per si! E aveva lamentato problemi all'installazione!
(sto semplicemente vagliando ogni possibilit, mi secca non riuscire a farlo funzionare)!





- Ask not what arena80 can do for you - ask what you can do for arena80 -

oppegnagno

  • Ufficiale
  • *****
  • Post: 1.732
    • Mostra profilo
Re: Grande Notizia !!!
« Risposta #31 il: 03 Ott 2011 13:06:48 »
Citazione
quote:
Scritto in origine da Calavera

Ovviamente io no, magari!;DMi pare che McNelly (l'uploader) per si! E aveva lamentato problemi all'installazione!
(sto semplicemente vagliando ogni possibilit, mi secca non riuscire a farlo funzionare)!


Se non sbalgio Mc ha parlato di "sistema" non che si riferiva al sitema operativo in virtualbox?

Fato

  • Ufficiale
  • *****
  • Post: 622
    • Mostra profilo
Re:Grande Notizia !!!
« Risposta #32 il: 27 Dic 2018 19:08:06 »
Non vi riesce ricreare la ISO o CD Multi.

Spiegata facile facile:

Montare con Daemon tools o altro creare immagine BIN 2352

Modificare il file Cuesheet che andremo ad inserire le tracce audio.

Citazione
FILE "Track No01.bin" BINARY
  TRACK 01 MODE1/2352
    INDEX 01 00:00:00
FILE "Track No02.wav" WAVE
  TRACK 02 AUDIO
    PREGAP 00:02:00
    INDEX 01 00:00:00
FILE "Track No03.wav" WAVE
  TRACK 03 AUDIO
    INDEX 01 00:02:00
FILE "Track No04.wav" WAVE
  TRACK 04 AUDIO
    INDEX 01 00:00:00
FILE "Track No05.wav" WAVE
  TRACK 05 AUDIO
    INDEX 01 00:00:00
FILE "Track No06.wav" WAVE
  TRACK 06 AUDIO
    INDEX 01 00:00:00
FILE "Track No07.wav" WAVE
  TRACK 07 AUDIO
    INDEX 01 00:00:00
FILE "Track No08.wav" WAVE
  TRACK 08 AUDIO
    INDEX 01 00:00:00
FILE "Track No09.wav" WAVE
  TRACK 09 AUDIO
    INDEX 01 00:00:00
FILE "Track No10.wav" WAVE
  TRACK 10 AUDIO
    INDEX 01 00:00:00
FILE "Track No11.wav" WAVE
  TRACK 11 AUDIO
    INDEX 01 00:00:00
FILE "Track No12.wav" WAVE
  TRACK 12 AUDIO
    INDEX 01 00:00:00
FILE "Track No13.wav" WAVE
  TRACK 13 AUDIO
    INDEX 01 00:00:00
FILE "Track No14.wav" WAVE
  TRACK 14 AUDIO
    INDEX 01 00:00:00
FILE "Track No15.wav" WAVE
  TRACK 15 AUDIO
    INDEX 01 00:00:00
FILE "Track No16.wav" WAVE
  TRACK 16 AUDIO
    INDEX 01 00:00:00
FILE "Track No17.wav" WAVE
  TRACK 17 AUDIO
    INDEX 01 00:00:00

Io ho fatto cosi
:p

Funziona, ci sto giocando

P.S.: Io ho rimontato con Daemon e ho ricreato un altra ISO "CUE-BIN", perch mi ha dato problemi tracce audio

Soluzione Facile o Easy, basta montarla con Daemon tools o simili,giocare o creare l'immagine

Citazione
FILE "Track No01.nrg" BINARY
  TRACK 01 MODE1/2048
    INDEX 01 00:00:00
FILE "Track No02.wav" WAVE
  TRACK 02 AUDIO
    PREGAP 00:02:00
    INDEX 01 00:00:00
FILE "Track No03.wav" WAVE
  TRACK 03 AUDIO
    INDEX 01 00:02:00
FILE "Track No04.wav" WAVE
  TRACK 04 AUDIO
    INDEX 01 00:00:00
FILE "Track No05.wav" WAVE
  TRACK 05 AUDIO
    INDEX 01 00:00:00
FILE "Track No06.wav" WAVE
  TRACK 06 AUDIO
    INDEX 01 00:00:00
FILE "Track No07.wav" WAVE
  TRACK 07 AUDIO
    INDEX 01 00:00:00
FILE "Track No08.wav" WAVE
  TRACK 08 AUDIO
    INDEX 01 00:00:00
FILE "Track No09.wav" WAVE
  TRACK 09 AUDIO
    INDEX 01 00:00:00
FILE "Track No10.wav" WAVE
  TRACK 10 AUDIO
    INDEX 01 00:00:00
FILE "Track No11.wav" WAVE
  TRACK 11 AUDIO
    INDEX 01 00:00:00
FILE "Track No12.wav" WAVE
  TRACK 12 AUDIO
    INDEX 01 00:00:00
FILE "Track No13.wav" WAVE
  TRACK 13 AUDIO
    INDEX 01 00:00:00
FILE "Track No14.wav" WAVE
  TRACK 14 AUDIO
    INDEX 01 00:00:00
FILE "Track No15.wav" WAVE
  TRACK 15 AUDIO
    INDEX 01 00:00:00
FILE "Track No16.wav" WAVE
  TRACK 16 AUDIO
    INDEX 01 00:00:00
FILE "Track No17.wav" WAVE
  TRACK 17 AUDIO
    INDEX 01 00:00:00
« Ultima modifica: 28 Dic 2018 11:40:13 da Fato »

tatsumi

  • SottoUfficiale
  • ****
  • Post: 451
    • Mostra profilo
Re:Grande Notizia !!!
« Risposta #33 il: 29 Dic 2018 12:52:39 »
Fatemi capire, Ivan Venturi non riesce a creare un dump decente se ha tra le mani un cd mixed mode??

Fato

  • Ufficiale
  • *****
  • Post: 622
    • Mostra profilo
Re:Grande Notizia !!!
« Risposta #34 il: 29 Dic 2018 14:18:12 »
Bho, io ho rimontato il cd mixed-mode, bastava leggersi qualche sito:

o per meglio dire ricostruito

https://www.dosbox.com/wiki/Cuesheet